Bram Stoker's Dracula (1992)[BD25/1080p/Audio Español/Subtítulos] - La Cuevana

Bram Stoker’s Dracula (1992)[BD25/1080p/Audio Español/Subtítulos]


^^^Descargar Bram Stoker’s Dracula (1992)[BD25/1080p/Audio Español/Subtítulos]^^^

Bram Stoker’s Dracula (1992)[BD25/1080p/Audio Español/Subtítulos] Full DVDRip Latino




AÑO: 1992
DURACIÓN: 130 min.
PAÍS: USA
DIRECTOR: Francis Ford Coppola
GUIÓN: James V. Hart (Novela: Bram Stocker)
MÚSICA: Wojciech Kilar
FOTOGRAFÍA: Michael Ballhaus
REPARTO: Gary Oldman, Anthony Hopkins, Winona Ryder, Keanu Reeves, Cary Elwes, Monica Bellucci, Sadie Frost, Tom Waits, Bill Campbell, Richard E. Grant
PRODUCTORA: Columbia Pictures / American Zoetrope / Osiris Films
PREMIOS:
1992: 3 Oscars: Mejor vestuario, maquillaje, efectos de sonido. 4 Nominaciones
1992: 4 nominaciones BAFTA: Mejor maquillaje, vestuario, montaje, efectos visuales
GÉNERO: Terror. Romance. Fantástico | Siglo XIX. Vampiros. Drácula. Película de culto.

SINOPSIS: En el año 1890, el joven abogado Jonathan Harker viaja a un castillo perdido de Transilvania, donde conoce al conde Drácula, que en 1462 perdió a su amor Elisabeta. El Conde, fascinado por una fotografía de Mina Murray, la novia de Harker, que le recuerda a su Elisabeta, viaja hasta Londres “cruzando océanos de tiempo” para conocerla. Ya en Inglaterra, intentará conquistar y seducir a Lucy, la mejor amiga de Mina.

FICHA TECNICA


Código:
General
ID : 1 (0x1)
Complete name : 00011.m2ts
Format : BDAV
Format/Info : Blu-ray Video
File size : 15.7 GiB
Duration : 2h 7mn
Overall bit rate mode : Variable
Overall bit rate : 17.7 Mbps
Maximum Overall bit rate : 35.5 Mbps

Video
ID : 4113 (0x1011)
Menu ID : 1 (0x1)
Format : AVC
Format/Info : Advanced Video Codec
Format profile : Main@L4.1
Format settings, CABAC : Yes
Format settings, ReFrames : 2 frames
Format settings, GOP : M=4, N=24
Codec ID : 27
Duration : 2h 7mn
Bit rate mode : Variable
Bit rate : 10.9 Mbps
Maximum bit rate : 34.1 Mbps
Width : 1 920 pixels
Height : 1 080 pixels
Display aspect ratio : 16:9
Frame rate : 23.976 fps
Color space : YUV
Chroma subsampling : 4:2:0
Bit depth : 8 bits
Scan type : Progressive
Bits/(Pixel*Frame) : 0.218
Stream size : 9.66 GiB (61%)
Writing library : x264 core 125 r2200 999b753
Encoding settings : cabac=1 / ref=1 / deblock=0:0:0 / analyse=0:0 / me=dia / subme=0 / psy=1 / psy_rd=1.00:0.00 / mixed_ref=0 / me_range=16 / chroma_me=1 / trellis=0 / 8x8dct=0 / cqm=0 / deadzone=21,11 / fast_pskip=1 / chroma_qp_offset=0 / threads=12 / lookahead_threads=2 / sliced_threads=0 / slices=4 / nr=0 / decimate=1 / interlaced=0 / bluray_compat=1 / constrained_intra=0 / bframes=3 / b_pyramid=0 / b_adapt=0 / b_bias=0 / direct=1 / weightb=0 / open_gop=0 / weightp=1 / keyint=24 / keyint_min=1 / scenecut=0 / intra_refresh=0 / rc_lookahead=0 / rc=crf / mbtree=0 / crf=17.6 / qcomp=0.60 / qpmin=0 / qpmax=69 / qpstep=4 / vbv_maxrate=34063 / vbv_bufsize=29294 / crf_max=0.0 / nal_hrd=vbr / ip_ratio=1.10 / pb_ratio=1.10 / aq=0

Audio #1
ID : 4352 (0x1100)
Menu ID : 1 (0x1)
Format : AC-3
Format/Info : Audio Coding 3
Mode extension : CM (complete main)
Format settings, Endianness : Big
Codec ID : 129
Duration : 2h 7mn
Bit rate mode : Constant
Bit rate : 640 Kbps
Channel(s) : 6 channels
Channel positions : Front: L C R, Side: L R, LFE
Sampling rate : 48.0 KHz
Bit depth : 16 bits
Compression mode : Lossy
Stream size : 583 MiB (4%)
Language : English

Audio #2
ID : 4353 (0x1101)
Menu ID : 1 (0x1)
Format : PCM
Format settings, Endianness : Big
Format settings, Sign : Signed
Muxing mode : Blu-ray
Codec ID : 128
Duration : 2h 7mn
Bit rate mode : Constant
Bit rate : 4 608 Kbps
Channel(s) : 6 channels
Channel positions : Front: L C R, Side: L R, LFE
Sampling rate : 48.0 KHz
Bit depth : 16 bits
Stream size : 4.10 GiB (26%)
Language : Spanish

Audio #3
ID : 4354 (0x1102)
Menu ID : 1 (0x1)
Format : AC-3
Format/Info : Audio Coding 3
Mode extension : CM (complete main)
Format settings, Endianness : Big
Codec ID : 129
Duration : 2h 7mn
Bit rate mode : Constant
Bit rate : 640 Kbps
Channel(s) : 6 channels
Channel positions : Front: L C R, Side: L R, LFE
Sampling rate : 48.0 KHz
Bit depth : 16 bits
Compression mode : Lossy
Stream size : 583 MiB (4%)
Language : Spanish

Audio #4
ID : 4355 (0x1103)
Menu ID : 1 (0x1)
Format : AC-3
Format/Info : Audio Coding 3
Format profile : Dolby Digital
Mode extension : CM (complete main)
Format settings, Endianness : Big
Codec ID : 129
Duration : 2h 7mn
Bit rate mode : Constant
Bit rate : 192 Kbps
Channel(s) : 2 channels
Channel positions : Front: L R
Sampling rate : 48.0 KHz
Bit depth : 16 bits
Compression mode : Lossy
Stream size : 175 MiB (1%)
Language : English

Text #1
ID : 4608 (0x1200)
Menu ID : 1 (0x1)
Format : PGS
Codec ID : 144
Language : English

Text #2
ID : 4609 (0x1201)
Menu ID : 1 (0x1)
Format : PGS
Codec ID : 144
Language : Spanish

Text #3
ID : 4610 (0x1202)
Menu ID : 1 (0x1)
Format : PGS
Codec ID : 144
Delay relative to video : 3s 670ms
Language : Spanish




 






+ YouTube Video


ERROR: If you can see this, then YouTube is down or you don’t have Flash installed.





ENLACES










Esta parte del post Tiene contenido oculto
Registrate para ver los temas


Bram Stoker’s Dracula (1992)[BD25/1080p/Audio Español/Subtítulos] Full DVDRip Latino

- bram stoker dracula 1080p mega latino - dracula bram stoker 1080 compucalitv

^^^Descargar Bram Stoker’s Dracula (1992)[BD25/1080p/Audio Español/Subtítulos]^^^

Deja tu comentario!