Castle Temporada 2 [HDTV] [Latino] [1link] [350 MB] - La Cuevana

Castle Temporada 2 [HDTV] [Latino] [1link] [350 MB]


^^^Descargar Castle Temporada 2 [HDTV] [Latino] [1link] [350 MB]^^^

Castle Temporada 2 [HDTV] [Latino] [1link] [350 MB] Serie Temporada Completa, MEGA




SINOPSIS


Cuando el escritor de best-sellers Richard Castle (Nathan Fillion) se queda sin inspiración, ésta parece volver a llamar a su puerta cuando un presunto asesino en serie imita los asesinatos de sus novelas. Colaborando en este primer caso con la inspectora Kate Beckett (Stana Katic), encuentra en ella la inspiracion para su nuevo libro y decide acompañarla en sus nuevos casos. La trama gira en torno a los distintos casos que van resolviendo y al progreso de la relación entre ambos protagonistas, quienes eventualmente entablan una relación romántica.


FICHA TECNICA


AÑO: 2010
PAÍS: EE.UU
TEMPORADA: Segunda
DIRECTOR: Andrew W. Marlowe
REPARTO: Nathan Fillion, Stana Katic, Ruben Santiago-Hudson, Jon Huertas, Seamus Dever
GENERO: Serie de TV|Policiaca|Drama|Comedia

Mediainfo:


Código:
General
Complete name : /Users/Ruben/Downloads/aaaa/Castle – 2×01.avi
Format : AVI
Format/Info : Audio Video Interleave
File size : 630 MiB
Duration : 40mn 15s
Overall bit rate : 2 186 Kbps
Writing application : VirtualDubMod 1.5.10.2 (build 2540/release)
Writing library : VirtualDubMod build 2540/release

Video
ID : 0
Format : MPEG-4 Visual
Format profile : Simple@L3
Format settings, BVOP : No
Format settings, QPel : No
Format settings, GMC : No warppoints
Format settings, Matrix : Default (H.263)
Codec ID : XVID
Codec ID/Hint : XviD
Duration : 40mn 15s
Bit rate : 1 724 Kbps
Width : 704 pixels
Height : 396 pixels
Display aspect ratio : 16:9
Frame rate : 25.000 fps
Original frame rate : 23.976 fps
Color space : YUV
Chroma subsampling : 4:2:0
Bit depth : 8 bits
Scan type : Progressive
Compression mode : Lossy
Bits/(Pixel*Frame) : 0.247
Stream size : 496 MiB (79%)
Writing library : XviD 1.1.2 (UTC 2006-11-01)

Audio #1
ID : 1
Format : MPEG Audio
Format version : Version 1
Format profile : Layer 3
Mode : Joint stereo
Codec ID : 55
Codec ID/Hint : MP3
Duration : 40mn 15s
Bit rate mode : Constant
Bit rate : 256 Kbps
Channel(s) : 2 channels
Sampling rate : 48.0 KHz
Compression mode : Lossy
Stream size : 73.7 MiB (12%)
Alignment : Aligned on interleaves
Interleave, duration : 40 ms (1.00 video frame)
Interleave, preload duration : 504 ms

Audio #2
ID : 2
Format : MPEG Audio
Format version : Version 1
Format profile : Layer 3
Mode : Joint stereo
Mode extension : MS Stereo
Codec ID : 55
Codec ID/Hint : MP3
Duration : 40mn 15s
Bit rate mode : Constant
Bit rate : 192 Kbps
Channel(s) : 2 channels
Sampling rate : 48.0 KHz
Compression mode : Lossy
Delay relative to video : 24ms
Stream size : 55.3 MiB (9%)
Alignment : Aligned on interleaves
Interleave, duration : 40 ms (1.00 video frame)
Interleave, preload duration : 504 ms

Descarga:

Uploaded.to:


Código:
1. http://***********/7bur7o69
2. http://***********/x5285i8j
3. http://***********/0f9l3lgt
4. http://***********/uo0ucqev
5. http://***********/rpler1vn
6. http://***********/3dvg6y6y
7. http://***********/dzut5hr4
8. http://***********/g3szdppf
9. http://***********/jbnir7fb
10. http://***********/xv8bv2dc
11. http://***********/x476azhx
12. http://***********/zh9bgbui
13. http://***********/kp1j0nsu
14. http://***********/d77v5qws
15. http://***********/6sm5812t
16. http://***********/4jrgzetv
17. http://***********/vmxkltsw
18. http://***********/wqec9u0z
19. http://***********/912oy4ez
20. http://***********/57hrxc3d
21. http://***********/gb69u63o
22. http://***********/dw3o2kos
23. http://***********/ay9plxp2
24. http://***********/dty7xhuy
Bishare.com



Código:
1. http://***********.com/files/h2xvtmdo/Castle—2×01.avi.html
2. http://***********.com/files/0fbb7cc3/Castle—2×02.avi.html
3. http://***********.com/files/gopscki8/Castle—2×03.avi.html
4. http://***********.com/files/rctvnbaw/Castle—2×04.avi.html
5. http://***********.com/files/4invedgx/Castle—2×05.avi.html
6. http://***********.com/files/8derodkq/Castle—2×06.avi.html
7. http://***********.com/files/yjjdgq7b/Castle—2×07.avi.html
8. http://***********.com/files/6b59rg9o/Castle—2×08.avi.html
9. http://***********.com/files/798z5puj/Castle—2×09.avi.html
10. http://***********.com/files/bfdv6hnr/Castle—2×10.avi.html
11. http://***********.com/files/282dhp5j/Castle—2×11.avi.html
12. http://***********.com/files/dn5odbg2/Castle—2×12.avi.html
13. http://***********.com/files/urk0g4hp/Castle—2×13.avi.html
14. http://***********.com/files/zx5hlg5y/Castle—2×14.avi.html
15. http://***********.com/files/e5we46i2/Castle—2×15.avi.html
16. http://***********.com/files/vmbh7u17/Castle—2×16.avi.html
17. http://***********.com/files/7rbdj7us/Castle—2×17.avi.html
18. http://***********.com/files/fls2sazl/Castle—2×18.avi.html
19. http://***********.com/files/40jxyrb8/Castle—2×19.avi.html
20. http://***********.com/files/fte62xx6/Castle—2×20.avi.html
21. http://***********.com/files/f204p284/Castle—2×21.avi.html
22. http://***********.com/files/kt1q54cm/Castle—2×22.avi.html
23. http://***********.com/files/ti35t9ha/Castle—2×23.avi.html
24. http://***********.com/files/dlztvc4c/Castle—2×24.avi.html
Castle Temporada 2 [HDTV] [Latino] [1link] [350 MB] Serie Temporada Completa, MEGA


^^^Descargar Castle Temporada 2 [HDTV] [Latino] [1link] [350 MB]^^^

Deja tu comentario!