pelicula The Amazing Spider-Man 720p español latino


>>>Descargar pelicula The Amazing Spider-Man 720p español latino<<<

Descargar pelicula The Amazing Spider-Man 720p español latino BRRip/DVDRip Latino [MEGA]





Como la mayorÃ*a de los adolescentes de su edad, Peter está intentando descubrir quién es y cómo ha llegado a ser lo que es. En su viaje para atar los cabos de su pasado descubre un secreto que guardaba su padre, un secreto que finalmente dará forma a su destino como Spiderman.



TÃ*tulo: The Amazing Spider-Man
TÃ*tulo original: The Amazing Spider-Man
PaÃ*s:USA
Estreno en USA: 03/07/2012
Estreno en España: 06/07/2012
Productora: Columbia Pictures (Sony)
Director: Marc Webb
Guión: James Vanderbilt, Alvin Sargent
Reparto: Andrew Garfield, Emma Stone, Rhys Ifans, Sally Field, Martin Sheen, Denis Leary, Campbell Scott, Embeth Davidtz, Irrfan Khan, C. Thomas Howell
Calificación: No recomendada para menores de 7 años





Código:
General
Complete name : The Amazing SpiderMan 2012 720p BRRip AC3 XviD Latino By Chamako.avi
Format : AVI
Format/Info : Audio Video Interleave
Format profile : OpenDML
File size : 3.85 GiB
Duration : 2h 16mn
Overall bit rate : 4 046 Kbps
Writing application : VirtualDubMod 1.5.10.2 (build 2542/release)
Writing library : VirtualDubMod build 2542/release

Video
ID : 0
Format : MPEG-4 Visual
Format profile : Advanced Simple@L5
Format settings, BVOP : 2
Format settings, QPel : No
Format settings, GMC : No warppoints
Format settings, Matrix : Default (H.263)
Codec ID : XVID
Codec ID/Hint : XviD
Duration : 2h 16mn
Bit rate : 3 200 Kbps
Width : 1 280 pixels
Height : 528 pixels
Display aspect ratio : 2.40:1
Frame rate : 23.976 fps
Color space : YUV
Chroma subsampling : 4:2:0
Bit depth : 8 bits
Scan type : Progressive
Compression mode : Lossy
Bits/(Pixel*Frame) : 0.197
Stream size : 3.05 GiB (79%)
Writing library : XviD 1.2.1 (UTC 2008-12-04)

Audio #1
ID : 1
Format : AC-3
Format/Info : Audio Coding 3
Mode extension : CM (complete main)
Codec ID : 2000
Duration : 2h 16mn
Bit rate mode : Constant
Bit rate : 384 Kbps
Channel(s) : 6 channels
Channel positions : Front: L C R, Side: L R, LFE
Sampling rate : 48.0 KHz
Bit depth : 16 bits
Compression mode : Lossy
Delay relative to video : 24ms
Stream size : 374 MiB (9%)
Alignment : Split accross interleaves
Interleave, duration : 42 ms (1.00 video frame)
Interleave, preload duration : 500 ms

Audio #2
ID : 2
Format : AC-3
Format/Info : Audio Coding 3
Mode extension : CM (complete main)
Codec ID : 2000
Duration : 2h 16mn
Bit rate mode : Constant
Bit rate : 448 Kbps
Channel(s) : 6 channels
Channel positions : Front: L C R, Side: L R, LFE
Sampling rate : 48.0 KHz
Bit depth : 16 bits
Compression mode : Lossy
Stream size : 437 MiB (11%)
Alignment : Split accross interleaves
Interleave, duration : 42 ms (1.00 video frame)
Interleave, preload duration : 500 ms









ARCHIVO DE RECUPERACIÓN + 1 SFV DE COMPROBACIÓN DE RAR
Añadir el link al Jdownloader o MiPony, y empieza a descargar del host que mas te agrade
SERVIDORES DISPONIBLES

The Amazing Spider-Man (2012) [BRRip 720p][Español Latino 5.1/Ingles 5.1]

CONTRASEÑA: chamako (todo minusculas)

Si Algun link cae solo enviame un MP con el link del post y lo resubiré

Descargar pelicula The Amazing Spider-Man 720p español latino BRRip/DVDRip Latino [MEGA]


Deja tu comentario!