La Saga Crepúsculo Amanecer - Parte 2 (2012) [BDRip 1080p][Español Latino 5.1/Ingles] - La Cuevana

La Saga Crepúsculo Amanecer – Parte 2 (2012) [BDRip 1080p][Español Latino 5.1/Ingles]


>>>Descargar La Saga Crepúsculo Amanecer – Parte 2 (2012) [BDRip 1080p][Español Latino 5.1/Ingles]<<<

La Saga Crepúsculo Amanecer – Parte 2 (2012) [BDRip 1080p][Español Latino 5.1/Ingles] DVDrip Español Latino





Tras convertirse en vampiro, Bella debe adaptarse a su nueva naturaleza. Cuando nace Renesmee, la familia Cullen tendrá que protegerse de la amenaza de los Volturi, pues existe una ley que prohíbe transformar a los niños en vampiros, ya que son difíciles de controlar y pueden provocar desastres que pongan en peligro la secreta existencia de los vampiros.



Título: La Saga Crepúsculo: Amanecer – Parte 2
Título original:The Twilight Saga: Breaking Dawn – Part 2
País: USA
Estreno en USA: 16/11/2012
Estreno en España: 16/11/2012
Productora: Summit Entertainment
Director: Bill Condon
Guión: Melissa Rosenberg
Reparto: Kristen Stewart, Robert Pattinson, Taylor Lautner, Anna Kendrick, Peter Facinelli, Dakota Fanning, Ashley Greene, Jackson Rathbone, Nikki Reed, Kellan Lutz, Elizabeth Reaser, Michael Sheen, Billy Burke, Boo Boo Stewart, Cameron Bright, Michael Welch, Julia Jones, Kiowa Gordon, Alex Meraz, Valorie Curry, Christopher Heyerdahl, Daniel Cudmore, Charlie Bewley, Jamie Campbell Bower
Calificación: No recomendada para menores de 12 años





Código:
General
Unique ID : 244025545589423393681412794366858041909 (0xB7959C4CA6CE060A966BFAA83D7F1A35)
Complete name : La Saga Crepúsculo Amanecer – Parte 2 1080p Latino By Chamako.mkv
Format : Matroska
Format version : Version 2
File size : 8.31 GiB
Duration : 1h 55mn
Overall bit rate : 10.3 Mbps
Movie name : wWw.Chamako.Net – La Saga Crepúsculo: Amanecer – Parte 2 1080p Latino
Encoded date : UTC 2013-02-19 02:41:49
Writing application : mkvmerge v3.4.0 (‘Rapunzel’) built on May 15 2010 09:38:20
Writing library : libebml v0.8.0 + libmatroska v0.9.0

Video
ID : 1
Format : AVC
Format/Info : Advanced Video Codec
Format profile : High@L4.1
Format settings, CABAC : Yes
Format settings, ReFrames : 5 frames
Codec ID : V_MPEG4/ISO/AVC
Duration : 1h 55mn
Bit rate : 8 364 Kbps
Width : 1 920 pixels
Height : 800 pixels
Display aspect ratio : 2.40:1
Frame rate mode : Constant
Frame rate : 23.976 fps
Color space : YUV
Chroma subsampling : 4:2:0
Bit depth : 8 bits
Scan type : Progressive
Bits/(Pixel*Frame) : 0.227
Stream size : 6.57 GiB (79%)
Title : wWw.Chamako.Net – La Saga Crepúsculo: Amanecer – Parte 2
Writing library : x264 core 129 r2245 bc13772
Encoding settings : cabac=1 / ref=5 / deblock=1:0:0 / analyse=0×3:0×133 / me=umh / subme=7 / psy=1 / psy_rd=1.00:0.00 / mixed_ref=1 / me_range=16 / chroma_me=1 / trellis=1 / 8x8dct=1 / cqm=0 / deadzone=21,11 / fast_pskip=0 / chroma_qp_offset=-2 / threads=18 / lookahead_threads=3 / sliced_threads=0 / nr=0 / decimate=1 / interlaced=0 / bluray_compat=0 / constrained_intra=0 / bframes=3 / b_pyramid=2 / b_adapt=1 / b_bias=0 / direct=1 / weightb=1 / open_gop=0 / weightp=2 / keyint=250 / keyint_min=23 / scenecut=40 / intra_refresh=0 / rc_lookahead=40 / rc=2pass / mbtree=1 / bitrate=8364 / ratetol=1.0 / qcomp=0.60 / qpmin=0 / qpmax=69 / qpstep=4 / cplxblur=20.0 / qblur=0.5 / ip_ratio=1.40 / aq=1:1.00
Language : English
Default : No
Forced : No

Audio #1
ID : 2
Format : AC-3
Format/Info : Audio Coding 3
Mode extension : CM (complete main)
Format settings, Endianness : Big
Codec ID : A_AC3
Duration : 1h 55mn
Bit rate mode : Constant
Bit rate : 448 Kbps
Channel(s) : 6 channels
Channel positions : Front: L C R, Side: L R, LFE
Sampling rate : 48.0 KHz
Bit depth : 16 bits
Compression mode : Lossy
Stream size : 369 MiB (4%)
Title : wWw.Chamako.net – Latino 5.1
Language : Spanish
Default : No
Forced : Yes

Audio #2
ID : 3
Format : DTS
Format/Info : Digital Theater Systems
Mode : 16
Format settings, Endianness : Big
Codec ID : A_DTS
Duration : 1h 55mn
Bit rate mode : Constant
Bit rate : 1 509 Kbps
Channel(s) : 6 channels
Channel positions : Front: L C R, Side: L R, LFE
Sampling rate : 48.0 KHz
Bit depth : 24 bits
Compression mode : Lossy
Delay relative to video : 11ms
Stream size : 1.21 GiB (15%)
Title : wWw.Chamako.Net – English DTS
Language : English
Default : Yes
Forced : No

Text #1
ID : 4
Format : UTF-8
Codec ID : S_TEXT/UTF8
Codec ID/Info : UTF-8 Plain Text
Title : English (Forced)
Language : English
Default : No
Forced : No

Text #2
ID : 5
Format : UTF-8
Codec ID : S_TEXT/UTF8
Codec ID/Info : UTF-8 Plain Text
Title : English
Language : English
Default : No
Forced : No

Text #3
ID : 6
Format : UTF-8
Codec ID : S_TEXT/UTF8
Codec ID/Info : UTF-8 Plain Text
Title : Spanish – COmpletos
Language : Spanish
Default : No
Forced : No

Menu
00:00:00.000 : en:00:00:00.000
00:08:04.067 : en:00:08:04.067
00:13:35.398 : en:00:13:35.398
00:18:36.073 : en:00:18:36.073
00:22:11.080 : en:00:22:11.080
00:30:03.343 : en:00:30:03.343
00:38:06.159 : en:00:38:06.159
00:44:23.619 : en:00:44:23.619
00:48:35.830 : en:00:48:35.830
00:52:31.440 : en:00:52:31.440
00:58:11.947 : en:00:58:11.947
01:02:10.352 : en:01:02:10.352
01:08:26.060 : en:01:08:26.060
01:11:38.503 : en:01:11:38.503
01:20:35.456 : en:01:20:35.456
01:24:57.509 : en:01:24:57.509
01:32:17.157 : en:01:32:17.157
01:38:08.966 : en:01:38:08.966










2ARCHIVO DE RECUPERACIÓN
Añadir el link al Jdownloader o MiPony, y empieza a descargar del host que mas te agrade
SERVIDORES DISPONIBLES

La Saga Crepúsculo Amanecer – Parte 2 (2012) [BDRip 1080p][Español Latino 5.1/Ingles DTS]

CONTRASEÑA: chamako (todo minusculas)

Si Algun link cae solo enviame un MP con el link del post y lo resubiré

La Saga Crepúsculo Amanecer – Parte 2 (2012) [BDRip 1080p][Español Latino 5.1/Ingles] DVDrip Español Latino

- descargar crepusculo amanecer parte 2 español latino full hd

Deja tu comentario!