Objetivo Salvaje (Wild Target) [DVDRip][Latino][Accion][2010][1 Link] - La Cuevana

Objetivo Salvaje (Wild Target) [DVDRip][Latino][Accion][2010][1 Link]


>>>Descargar Objetivo Salvaje (Wild Target) [DVDRip][Latino][Accion][2010][1 Link]<<<

Objetivo Salvaje (Wild Target) [DVDRip][Latino][Accion][2010][1 Link] DVDRip Español Latino






Un veterano asesino a sueldo (Bill Nighy) intentará cumplir su último trabajo y luego retirarse, pero caerá enamorado de una joven y atractiva ladrona (Emily Blunt) que le cambiará por completo sus planes de jubilación.



Título Original: Wild Target (Petits Meurtres À L?anglaise)
Otro Título: Objetivo Salvaje
Año: 2010
Duración: 98 Min.
País. Reino Unido
Director: Jonathan Lynn
Guión: Lucinda Coxon, Pierre Salvadori
Música: Michael Price
Fotografía: David Johnson
Reparto. Bill Nighy, Emily Blunt, Rupert Grint, Rupert Everett, Eileen Atkins, Martin Freeman, Gregor Fisher, Graham Seed, Stephanie Lammond, Philip Battley, Rory Kinnear, Geoff Bell, Sia Berkeley
Productora: Coproducción Reino Unido-Francia; Magic Light Pictures / Cinemanx / Isle Of Man Film
Género: Comedia. Acción

Datos Técnicos:
DVDRip | AVI | 700 MB | Español Latino | Acción | 2010


Informacion Tecnica:


Código:
General
Complete name : /WILDTARGET.avi
Format : AVI
Format/Info : Audio Video Interleave
File size : 701 MiB
Duration : 1h 38mn
Overall bit rate : 997 Kbps
Recorded date : 29-09-2012
Writing application : VirtualDubMod 1.5.10.2 (build 2540/release) VirtualDubMod build 2540/release
Original source form/Name : Movie
Video
ID : 0
Format : MPEG-4 Visual
Format profile : Advanced Simple@L5
Format settings, BVOP : 1
Format settings, QPel : No
Format settings, GMC : No warppoints
Format settings, Matrix : Custom
Codec ID : XVID
Codec ID/Hint : XviD
Duration : 1h 38mn
Bit rate : 859 Kbps
Width : 640 pixels
Height : 272 pixels
Display aspect ratio : 2.35:1
Frame rate : 23.976 fps
Color space : YUV
Chroma subsampling : 4:2:0
Bit depth : 8 bits
Scan type : Progressive
Compression mode : Lossy
Bits/(Pixel*Frame) : 0.206
Stream size : 604 MiB (86%)
Writing library : XviD 58

Audio
ID : 1
Format : MPEG Audio
Format version : Version 1
Format profile : Layer 3
Mode : Joint stereo
Mode extension : MS Stereo
Codec ID : 55
Codec ID/Hint : MP3
Duration : 1h 38mn
Bit rate mode : Constant
Bit rate : 128 Kbps
Channel(s) : 2 channels
Sampling rate : 44.1 KHz
Compression mode : Lossy
Stream size : 90.0 MiB (13%)
Alignment : Split accross interleaves
Interleave, duration : 42 ms (1.00 video frame)
Interleave, preload duration : 500 ms
Writing library : LAME3.98.2
Language : un / English










WILDTARGET.avi – EDPaste.Info


Objetivo Salvaje (Wild Target) [DVDRip][Latino][Accion][2010][1 Link] DVDRip Español Latino



Deja tu comentario!