Regreso al Futuro III [1990][BDrip 1080p x264][DTS(es-eng)+subs][Comedia, sci-fi] - La Cuevana

Regreso al Futuro III [1990][BDrip 1080p x264][DTS(es-eng)+subs][Comedia, sci-fi]


^^^Descargar Regreso al Futuro III [1990][BDrip 1080p x264][DTS(es-eng)+subs][Comedia, sci-fi]^^^

Regreso al Futuro III [1990][BDrip 1080p x264][DTS(es-eng)+subs][Comedia, sci-fi] Full DVDRip Latino









Cita:




Título original: Back to the future, part III
Año: 1990
Duración: 118 min.
País: EE.UU.
Director: Robert Zemeckis
Guión: Bob Gale (Historia: Bob Gale y Robert Zemeckis)
Música: Alan Silvestri
Fotografía: Dean Cundey
Reparto: Michael J. Fox, Christopher Lloyd, Mary Steenburgen, Thomas F. Wilson, Lea Thompson, Elisabeth Shue, Matt Clark y Richard Dysart
Productora: Universal Pictures
Género: Ciencia ficción. Comedia. Fantástico. Aventuras. Western.




Cita:




Doc tiene el coche-máquina del tiempo averiado, y está prisionero en la época del salvaje oeste. Por su parte, Marty McFly está en 1955 y acaba de encontrar una carta escrita por Doc en 1885. En ella, Doc le pide que arregle el coche, pero que no vaya a rescatarlo pues se encuentra muy bien en el pasado. Sin embargo el muchacho irá en su búsqueda cuando descubre una vieja tumba en la que lee que su amigo murió en 1885.








Código:
General

Format : Matroska
Format version : Version 2
File size : 7.95 GiB
Duration : 1h 58mn
Overall bit rate : 9 625 Kbps
Encoded date : UTC 2011-04-20 18:05:27
Writing application : mkvmerge v3.2.0 (‘Beginnings’) built on Feb 12 2010 16:46:17
Writing library : libebml v0.7.9 + libmatroska v0.8.1

Video
ID : 1
Format : AVC
Format/Info : Advanced Video Codec
Format profile : High@L4.1
Format settings, CABAC : Yes
Format settings, ReFrames : 4 frames
Codec ID : V_MPEG4/ISO/AVC
Duration : 1h 58mn
Bit rate : 6 926 Kbps
Width : 1 920 pixels
Height : 1 040 pixels
Display aspect ratio : 16:9
Frame rate : 23.976 fps
Color space : YUV
Chroma subsampling : 4:2:0
Bit depth : 8 bits
Scan type : Progressive
Bits/(Pixel*Frame) : 0.145
Stream size : 5.61 GiB (70%)
Title : Vídeo
Writing library : x264 core 104 r1675 2484aa0
Encoding settings : cabac=1 / ref=4 / deblock=1:0:0 / analyse=0×3:0×133 / me=umh / subme=10 / psy=1 / psy_rd=1.00:0.00 / mixed_ref=1 / me_range=24 / chroma_me=1 / trellis=2 / 8x8dct=1 / cqm=0 / deadzone=21,11 / fast_pskip=1 / chroma_qp_offset=-2 / threads=6 / sliced_threads=0 / nr=0 / decimate=1 / interlaced=0 / constrained_intra=0 / bframes=8 / b_pyramid=2 / b_adapt=2 / b_bias=0 / direct=3 / weightb=1 / open_gop=0 / weightp=2 / keyint=250 / keyint_min=23 / scenecut=40 / intra_refresh=0 / rc_lookahead=60 / rc=2pass / mbtree=1 / bitrate=6926 / ratetol=1.0 / qcomp=0.60 / qpmin=10 / qpmax=51 / qpstep=4 / cplxblur=20.0 / qblur=0.5 / ip_ratio=1.40 / aq=1:1.00
Default : Yes
Forced : No

Audio #1
ID : 2
Format : DTS
Format/Info : Digital Theater Systems
Codec ID : A_DTS
Duration : 1h 58mn
Bit rate mode : Constant
Bit rate : 754 Kbps
Channel(s) : 6 channels
Channel positions : Front: L C R, Side: L R, LFE
Sampling rate : 48.0 KHz
Bit depth : 24 bits
Compression mode : Lossy
Stream size : 638 MiB (8%)
Title : Latino DTS 5.1
Language : Spanish
Default : Yes
Forced : No

Audio #2
ID : 3
Format : DTS
Format/Info : Digital Theater Systems
Codec ID : A_DTS
Duration : 1h 58mn
Bit rate mode : Constant
Bit rate : 1 510 Kbps
Channel(s) : 6 channels
Channel positions : Front: L C R, Side: L R, LFE
Sampling rate : 48.0 KHz
Bit depth : 24 bits
Compression mode : Lossy
Stream size : 1.25 GiB (16%)
Title : Inglés DTS 5.1
Language : English
Default : No
Forced : No

Audio #3
ID : 4
Format : AC-3
Format/Info : Audio Coding 3
Format profile : Dolby Digital
Mode extension : CM (complete main)
Codec ID : A_AC3
Duration : 1h 58mn
Bit rate mode : Constant
Bit rate : 192 Kbps
Channel(s) : 2 channels
Channel positions : Front: L R
Sampling rate : 48.0 KHz
Bit depth : 16 bits
Compression mode : Lossy
Stream size : 162 MiB (2%)
Title : Inglés comentarios 1) AC3 2.0
Language : English
Default : No
Forced : No

Audio #4
ID : 5
Format : AC-3
Format/Info : Audio Coding 3
Format profile : Dolby Digital
Mode extension : CM (complete main)
Codec ID : A_AC3
Duration : 1h 58mn
Bit rate mode : Constant
Bit rate : 192 Kbps
Channel(s) : 2 channels
Channel positions : Front: L R
Sampling rate : 48.0 KHz
Bit depth : 16 bits
Compression mode : Lossy
Stream size : 162 MiB (2%)
Title : Inglés comentarios 2) AC3 2.0
Language : English
Default : No
Forced : No

Text #1
ID : 6
Format : VobSub
Muxing mode : zlib
Codec ID : S_VOBSUB
Codec ID/Info : The same subtitle format used on DVDs
Title : Latino (forzados)
Language : Spanish
Default : Yes
Forced : Yes

Text #2
ID : 7
Format : VobSub
Muxing mode : zlib
Codec ID : S_VOBSUB
Codec ID/Info : The same subtitle format used on DVDs
Title : Latino
Language : Spanish
Default : No
Forced : No

Text #3
ID : 8
Format : VobSub
Muxing mode : zlib
Codec ID : S_VOBSUB
Codec ID/Info : The same subtitle format used on DVDs
Title : Latino (comentarios 1)
Language : Spanish
Default : No
Forced : No

Text #4
ID : 9
Format : VobSub
Muxing mode : zlib
Codec ID : S_VOBSUB
Codec ID/Info : The same subtitle format used on DVDs
Title : Latino (comentarios 2)
Language : Spanish
Default : No
Forced : No

Text #5
ID : 10
Format : VobSub
Muxing mode : zlib
Codec ID : S_VOBSUB
Codec ID/Info : The same subtitle format used on DVDs
Title : Inglés
Language : English
Default : No
Forced : No

Text #6
ID : 11
Format : VobSub
Muxing mode : zlib
Codec ID : S_VOBSUB
Codec ID/Info : The same subtitle format used on DVDs
Title : Inglés (comentarios 1)
Language : English
Default : No
Forced : No

Text #7
ID : 12
Format : VobSub
Muxing mode : zlib
Codec ID : S_VOBSUB
Codec ID/Info : The same subtitle format used on DVDs
Title : Inglés (comentarios 2)
Language : English
Default : No
Forced : No






Esta parte del post Tiene contenido oculto
Registrate para ver los temas




*DESCARGA AL MAXIMO, EL MEJOR*



Esta parte del post Tiene contenido oculto
Registrate para ver los temas




Esta parte del post Tiene contenido oculto
Registrate para ver los temas




Esta parte del post Tiene contenido oculto
Registrate para ver los temas




Esta parte del post Tiene contenido oculto
Registrate para ver los temas

Descomprimir con Winrar
Regreso al Futuro III [1990][BDrip 1080p x264][DTS(es-eng)+subs][Comedia, sci-fi] Full DVDRip Latino


^^^Descargar Regreso al Futuro III [1990][BDrip 1080p x264][DTS(es-eng)+subs][Comedia, sci-fi]^^^

Deja tu comentario!