The Raid: Redemption (2011)[BD25/1080p/Audio Español Latino/Subtítulos] - La Cuevana

The Raid: Redemption (2011)[BD25/1080p/Audio Español Latino/Subtítulos]


>>>Descargar The Raid: Redemption (2011)[BD25/1080p/Audio Español Latino/Subtítulos]<<<

The Raid: Redemption (2011)[BD25/1080p/Audio Español Latino/Subtítulos] Full DVDRip Latino




AÑO: 2011
DURACIÓN: 101 min.
PAÍS: USA | INDONESIA
DIRECTOR: Gareth Evans
GUIÓN: Gareth Evans
MÚSICA: Aria Prayogi, Fajar Yuskemal
FOTOGRAFÍA: Matt Flannery
REPARTO: Iko Uwais, Doni Alamsyah, Joe Taslim
PRODUCTORA: XYZ Films
GÉNERO: Acción. Thriller.

SINOPSIS: Todo el mundo en Jakarta sabe que en los barrios bajos de la ciudad hay un edificio que sirve de refugio para los criminales más peligrosos de Indonesia. Algo así como una fortaleza del mal cuya leyenda crece día a día y a la que incluso la policía teme acercarse. Pese a ello, un grupo de fuerzas especiales de élite intentará derribar sus defensas y penetrar en sus entrañas. Pero la operación no sale según lo previsto, y los policías se encontrarán atrapados en el edificio, sin escapatoria posible y rodeados de asesinos y gángsters.


FICHA TECNICA


Código:
General
ID : 1 (0×1)
Complete name : 00602.m2ts
Format : BDAV
Format/Info : Blu-ray Video
File size : 11.5 GiB
Duration : 1h 33mn
Overall bit rate mode : Variable
Overall bit rate : 17.7 Mbps
Maximum Overall bit rate : 35.5 Mbps

Video
ID : 4113 (0×1011)
Menu ID : 1 (0×1)
Format : AVC
Format/Info : Advanced Video Codec
Format profile : Main@L4.1
Format settings, CABAC : Yes
Format settings, ReFrames : 2 frames
Format settings, GOP : M=4, N=24
Codec ID : 27
Duration : 1h 33mn
Bit rate mode : Variable
Bit rate : 13.1 Mbps
Maximum bit rate : 35.0 Mbps
Width : 1 920 pixels
Height : 1 080 pixels
Display aspect ratio : 16:9
Frame rate : 23.976 fps
Color space : YUV
Chroma subsampling : 4:2:0
Bit depth : 8 bits
Scan type : Progressive
Bits/(Pixel*Frame) : 0.263
Stream size : 8.51 GiB (74%)
Writing library : x264 core 125 r2200 999b753
Encoding settings : cabac=1 / ref=1 / deblock=0:0:0 / analyse=0:0 / me=dia / subme=0 / psy=1 / psy_rd=1.00:0.00 / mixed_ref=0 / me_range=16 / chroma_me=1 / trellis=0 / 8x8dct=0 / cqm=0 / deadzone=21,11 / fast_pskip=1 / chroma_qp_offset=0 / threads=12 / lookahead_threads=2 / sliced_threads=0 / slices=4 / nr=0 / decimate=1 / interlaced=0 / bluray_compat=1 / constrained_intra=0 / bframes=3 / b_pyramid=0 / b_adapt=0 / b_bias=0 / direct=1 / weightb=0 / open_gop=0 / weightp=1 / keyint=24 / keyint_min=1 / scenecut=0 / intra_refresh=0 / rc_lookahead=0 / rc=crf / mbtree=0 / crf=17.0 / qcomp=0.60 / qpmin=0 / qpmax=69 / qpstep=4 / vbv_maxrate=35000 / vbv_bufsize=30000 / crf_max=0.0 / nal_hrd=vbr / ip_ratio=1.10 / pb_ratio=1.10 / aq=0

Audio #1
ID : 4352 (0×1100)
Menu ID : 1 (0×1)
Format : DTS
Format/Info : Digital Theater Systems
Format profile : MA / Core
Muxing mode : Stream extension
Codec ID : 134
Duration : 1h 33mn
Bit rate mode : Variable
Bit rate : 2 443 Kbps / 1 510 Kbps
Channel(s) : 6 channels
Channel positions : Front: L C R, Side: L R, LFE
Sampling rate : 48.0 KHz
Bit depth : 16 bits
Compression mode : Lossless / Lossy
Language : English

Audio #2
ID : 4353 (0×1101)
Menu ID : 1 (0×1)
Format : AC-3
Format/Info : Audio Coding 3
Mode extension : CM (complete main)
Format settings, Endianness : Big
Codec ID : 129
Duration : 1h 33mn
Bit rate mode : Constant
Bit rate : 640 Kbps
Channel(s) : 6 channels
Channel positions : Front: L C R, Side: L R, LFE
Sampling rate : 48.0 KHz
Bit depth : 16 bits
Compression mode : Lossy
Stream size : 426 MiB (4%)
Language : Spanish

Audio #3
ID : 4354 (0×1102)
Menu ID : 1 (0×1)
Format : AC-3
Format/Info : Audio Coding 3
Mode extension : CM (complete main)
Format settings, Endianness : Big
Codec ID : 129
Duration : 1h 33mn
Bit rate mode : Constant
Bit rate : 640 Kbps
Channel(s) : 6 channels
Channel positions : Front: L C R, Side: L R, LFE
Sampling rate : 48.0 KHz
Bit depth : 16 bits
Compression mode : Lossy
Stream size : 426 MiB (4%)
Language : Spanish

Audio #4
ID : 4355 (0×1103)
Menu ID : 1 (0×1)
Format : AC-3
Format/Info : Audio Coding 3
Mode extension : CM (complete main)
Format settings, Endianness : Big
Codec ID : 129
Duration : 1h 33mn
Bit rate mode : Constant
Bit rate : 192 Kbps
Channel(s) : 2 channels
Channel positions : Front: L R
Sampling rate : 48.0 KHz
Bit depth : 16 bits
Compression mode : Lossy
Stream size : 128 MiB (1%)
Language : English

Text #1
ID : 4608 (0×1200)
Menu ID : 1 (0×1)
Format : PGS
Codec ID : 144
Delay relative to video : 15s 849ms
Language : English

Text #2
ID : 4609 (0×1201)
Menu ID : 1 (0×1)
Format : PGS
Codec ID : 144
Delay relative to video : 15s 933ms
Language : English

Text #3
ID : 4610 (0×1202)
Menu ID : 1 (0×1)
Format : PGS
Codec ID : 144
Delay relative to video : 15s 849ms
Language : English

Text #4
ID : 4611 (0×1203)
Menu ID : 1 (0×1)
Format : PGS
Codec ID : 144
Delay relative to video : 15s 849ms
Language : English

Text #5
ID : 4612 (0×1204)
Menu ID : 1 (0×1)
Format : PGS
Codec ID : 144
Delay relative to video : 15s 849ms
Language : Spanish

Text #6
ID : 4613 (0×1205)
Menu ID : 1 (0×1)
Format : PGS
Codec ID : 144
Delay relative to video : 15s 849ms
Language : Spanish

Text #7
ID : 4614 (0×1206)
Menu ID : 1 (0×1)
Format : PGS
Codec ID : 144
Duration : 1h 33mn
Delay relative to video : 167ms
Language : English

Text #8
ID : 4615 (0×1207)
Menu ID : 1 (0×1)
Format : PGS
Codec ID : 144
Duration : 1h 33mn
Delay relative to video : 167ms
Language : Spanish

Text #9
ID : 4616 (0×1208)
Menu ID : 1 (0×1)
Format : PGS
Codec ID : 144
Delay relative to video : 15s 849ms
Language : Spanish

Text #10
ID : 4617 (0×1209)
Menu ID : 1 (0×1)
Format : PGS
Codec ID : 144
Delay relative to video : 15s 849ms
Language : English

Text #11
ID : 4618 (0x120A)
Menu ID : 1 (0×1)
Format : PGS
Codec ID : 144
Delay relative to video : 15s 849ms
Language : Spanish

Text #12
ID : 4619 (0x120B)
Menu ID : 1 (0×1)
Format : PGS
Codec ID : 144
Delay relative to video : 15s 849ms
Language : English


 






+ YouTube Video


ERROR: If you can see this, then YouTube is down or you don’t have Flash installed.





ENLACES













Esta parte del post Tiene contenido oculto
Registrate para ver los temas





The Raid: Redemption (2011)[BD25/1080p/Audio Español Latino/Subtítulos] Full DVDRip Latino

- cuevana the raid - raid redemption m2ts 00602 - The raid 3 audio latino espanol


Deja tu comentario!