Top Gun: Pasión y Gloria [BDRip 1080p][LATINO 5.1]DTS[En-US][Sub][Acción][1986] - La Cuevana

Top Gun: Pasión y Gloria [BDRip 1080p][LATINO 5.1]DTS[En-US][Sub][Acción][1986]


^^^Descargar Top Gun: Pasión y Gloria [BDRip 1080p][LATINO 5.1]DTS[En-US][Sub][Acción][1986]^^^

Top Gun: Pasión y Gloria [BDRip 1080p][LATINO 5.1]DTS[En-US][Sub][Acción][1986] DVDrip Español Latino


Top Gun: Pasión y Gloria [BDRip 1080p][LATINO 5.1]DTS[En-US][Sub][Acción][1986]


Ficha Técnica
TÍTULO ORIGINAL: Top Gun
Top Gun: Ídolos del Aire (España)
Top Gun: Pasión y Gloria (América Latina)
AÑO: 1986
DURACIÓN: 110 min.
PAIS: Estados Unidos
DIRECTOR: Tony Scott
GUIÓN: Jim Cash & Jack Epps Jr.
MÚSICA: Giorgio Moroder
FOTOGRAFÍA: Jeffrey Kimball (AKA Jeffrey L. Kimball)
REPARTO: Tom Cruise, Kelly McGillis, Tom Skerritt, Anthony Edwards, Val Kilmer, Meg Ryan,
Michael Ironside, John Stockwell, Rick Rossovich, Tim Robbins
PRODUCTORA: Paramount Pictures
PREMIOS 1986: Oscar: Mejor canción original. 4 nominaciones
GÉNERO: Acción. Drama. Romance | Aviones. Ejército

Sinopsis
La Marina de los Estados Unidos ha creado una escuela de élite para pilotos con el fin de sacar una promoción de expertos en técnicas de combate. En la academia, más conocida como Top Gun, a los mejores se les entrena para ser intrépidos y fríos al mismo tiempo, capaces de no perder los nervios en situaciones extremas y de no inmutarse al romper la barrera del sonido a los mandos de un F-14. A la escuela llega el joven Maverick, famoso por su temeraria aunque brillante forma de pilotar

Datos Técnicos


Código:
General
Format : Matroska
Format version : Version 2
File size : 12.9 GiB
Duration : 1h 50mn
Overall bit rate : 16.7 Mbps
Movie name : www.CadagotoHD.Com ¡Visítanos!
Encoded date : UTC 2013-02-18 23:24:32
Writing application : mkvmerge v3.4.0 (‘Rapunzel’) built on May 15 2010 09:38:20
Writing library : libebml v0.8.0 + libmatroska v0.9.0

Video
ID : 1
Format : AVC
Format/Info : Advanced Video Codec
Format profile : High@L4.1
Format settings, CABAC : Yes
Format settings, ReFrames : 4 frames
Format settings, GOP : N=1
Codec ID : V_MPEG4/ISO/AVC
Duration : 1h 50mn
Bit rate : 13.5 Mbps
Width : 1 920 pixels
Height : 802 pixels
Display aspect ratio : 2.40:1
Frame rate mode : Constant
Frame rate : 23.976 fps
Color space : YUV
Chroma subsampling : 4:2:0
Bit depth : 8 bits
Scan type : Progressive
Bits/(Pixel*Frame) : 0.367
Stream size : 10.5 GiB (81%)
Title : www.CadagotoHD.Com ¡Visítanos!
Writing library : x264 core 67 r1130M 8475977
Encoding settings : cabac=1 / ref=4 / deblock=1:-3:-3 / analyse=0×3:0×113 / me=esa / subme=9 / psy_rd=1.3:0.2 / mixed_ref=0 / me_range=16 / chroma_me=1 / trellis=2 / 8x8dct=1 / cqm=0 / deadzone=21,11 / chroma_qp_offset=-3 / threads=6 / nr=0 / decimate=0 / mbaff=0 / bframes=3 / b_pyramid=0 / b_adapt=2 / b_bias=0 / direct=1 / wpredb=1 / keyint=250 / keyint_min=25 / scenecut=40 / rc=crf / crf=18.0 / qcomp=0.60 / qpmin=10 / qpmax=51 / qpstep=4 / ip_ratio=1.40 / pb_ratio=1.30 / aq=1:0.90
Language : English
Default : No
Forced : No

Audio #1
ID : 2
Format : AC-3
Format/Info : Audio Coding 3
Mode extension : CM (complete main)
Format settings, Endianness : Big
Codec ID : A_AC3
Duration : 1h 50mn
Bit rate mode : Constant
Bit rate : 640 Kbps
Channel(s) : 6 channels
Channel positions : Front: L C R, Side: L R, LFE
Sampling rate : 48.0 KHz
Bit depth : 16 bits
Compression mode : Lossy
Delay relative to video : 16ms
Stream size : 508 MiB (4%)
Title : Audio Latino AC3 5.1
Language : Spanish
Default : Yes
Forced : Yes

Audio #2
ID : 3
Format : AC-3
Format/Info : Audio Coding 3
Mode extension : CM (complete main)
Format settings, Endianness : Big
Codec ID : A_AC3
Duration : 1h 50mn
Bit rate mode : Constant
Bit rate : 640 Kbps
Channel(s) : 6 channels
Channel positions : Front: L C R, Side: L R, LFE
Sampling rate : 48.0 KHz
Bit depth : 16 bits
Compression mode : Lossy
Stream size : 508 MiB (4%)
Title : Audio Inglés AC3 5.1
Language : English
Default : No
Forced : No

Audio #3
ID : 4
Format : DTS
Format/Info : Digital Theater Systems
Mode : 16
Format settings, Endianness : Big
Codec ID : A_DTS
Duration : 1h 50mn
Bit rate mode : Constant
Bit rate : 1 510 Kbps
Channel(s) : 6 channels
Channel positions : Front: L C R, Side: L R, LFE
Sampling rate : 48.0 KHz
Bit depth : 24 bits
Compression mode : Lossy
Delay relative to video : 11ms
Stream size : 1.17 GiB (9%)
Title : Audio Inglés DTS 5.1
Language : English
Default : No
Forced : No

Text #1
ID : 5
Format : UTF-8
Codec ID : S_TEXT/UTF8
Codec ID/Info : UTF-8 Plain Text
Title : Sub Español
Language : Spanish
Default : No
Forced : No

Text #2
ID : 6
Format : UTF-8
Codec ID : S_TEXT/UTF8
Codec ID/Info : UTF-8 Plain Text
Title : Forzados
Language : Spanish
Default : Yes
Forced : Yes
















Adquiere Tu Cuenta Premium Aqui , así Ayudarás A Seguir aportando!
AQUI : http://lacuevana-2.org/decode.php?h=aHR0cDovL3VsLnRvL3JlZi8yMTQ0MjYz
Compra Tu Premiun de 3 – 6 Meses – 1 Año y Descarga sin Limites De Velocidad!
Si Ya Tienes Cuenta En Ul.to y deseas ayudar , registrate con un E-Mail totalmente nuevo ,Gracias !

AQUI : http://lacuevana-2.org/decode.php?h=aHR0cDovL3VsLnRvL3JlZi8yMTQ0MjYz

Links De 500 Mb!
¡Descargar Los Enlaces AQUI!
http://lacuevana-2.org/decode.php?h=aHR0cDovL3MybC5iaXovbmtnemZpbXB5aGxv











Deseas Peliculas 720p – 1080p – 3D SBS – BluRay BD25 En Español Latino?

¡Solo Tienes Que Seguirme … CadagotoHD Siempre Lo Mejor en HD De La Web!

Top Gun: Pasión y Gloria [BDRip 1080p][LATINO 5.1]DTS[En-US][Sub][Acción][1986] DVDrip Español Latino

- top gun pasion y gloria

^^^Descargar Top Gun: Pasión y Gloria [BDRip 1080p][LATINO 5.1]DTS[En-US][Sub][Acción][1986]^^^

Deja tu comentario!